kk3583

Members
  • Content count

    22
  • Joined

  • Last visited

9

About kk3583

  • Rank
    Member
  1. Janatha Garage (2016) Telugu Mp3 Songs All Songs In A Zip File (128KBPS) Cast & Crew : Jr.NTR,Samantha,Nithya Menen Director : Koratala Siva Music Director : Devi Sri Prasad Janatha Garage (2016) Telugu Mp3 Songs All Songs In A Zip File (128KBPS) http://linkshrink.net/7pKsGZ
  2. Panaamam Lyrical Video | Janatha Garage | Jr NTR, Mohanlal, Samantha | DSP |
  3. Rock On Bro Lyrical Video | Janatha Garage | Jr NTR, Mohanlal, Samantha | DSP |
  4. Rustom 2016 Hindi Movie DVDScrRip 700MB Release Date: 12 August 2016 (India) Genres: Action, Crime, Mystory Language: Hindi Quality: DVDScrRip Size: 700MB Director:Dharmendra Suresh Desai Writer: Vipul K. Rawal Stars: Akshay Kumar, Ileana, Esha Gupta File: Rustom 2016 Hindi Movie DVDScrRip 700MB (mp4 Size: 73272474367 bytes (700.02 MiB), duration: 02:28:16, avg.bitrate: 568 kb/s Audio: aac, 21000 Hz, mono (eng) Video: h264, yuv420p, 1080×720, 24.00 fps(r) (und) Direct link http://goo.gl/rPu6oH
  5. #EeduGoldEhe first look, Hope you guys like it. Teaser will be out today at 5pm on TV9 Telugu.
  6. Majnu Movie Teaser || Nani || Virinchi Varma || Gopi Sunder || #MajnuTeaser YouTube link http://goo.gl/SZxSH2
  7. సమీక్ష : బాబు బంగారం – సరదాగా చూడొచ్చు ! రేటింగ్ : 3/5 దర్శకత్వం : మారుతి నిర్మాత : నాగ వంశీ, పి.డి.వి. ప్రసాద్ సంగీతం : ఘిబ్రాన్ నటీనటులు : వెంకటేష్, నయనతార
  8. U Janatha Garage Audio Track List Full songs coming soon Janatha Garage Audio Launch LIVE | Jr NTR | Mohanlal | Samantha | Nithya Menen | #JanathaGarage Link http://goo.gl/Nv6RL1
  9. Bad Moms 2016 Download English Movie HDCAM XviD AC3 http://linkshrink.net/7Orw2v
  10. Suicide Squad 2016 Download english movie Complete New HD-CAM V2 x264 AAC - kk General Format : Matroska File size : 701 MiB Duration : 1h 52mn bit rate : 873 Kbps Width : 720 pixels Height : 576 pixels aspect ratio : 5:4 Frame rate : 30.000 fps Format : AAC Format/Info : Advanced Audio Codec Format profile : LC Codec ID : A_AAC http://linkshrink.net/7RvcvJ
  11. Om Namo Venkatesaya (2016) - Anushka Video l► Watch here http://linkshrink.net/7A2LoY
  12. Aatadukundam Raa (2016) - Original Full Mp3 CD 320 kbps http://linkshrink.net/7DbKtW 128 kpbs http://linkshrink.net/7rwIJ6
  13. The.Brooklyn.Banker.2016.WEB-DL.x264 Video ID : 1 Format : AVC Format/Info : Advanced Video Codec Format profile : [email protected] Format settings, CABAC : Yes Format settings, ReFrames : 5 frames Codec ID : avc1 Codec ID/Info : Advanced Video Coding Duration : 1h 37mn Bit rate : 1 100 Kbps Width : 720 pixels Height : 400 pixels Display aspect ratio : 16:9 Frame rate mode : Constant Frame rate : 23.976 (24000/1001) fps Color space : YUV Chroma subsampling : 4:2:0 Bit depth : 8 bits Scan type : Progressive Bits/(Pixel*Frame) : 0.159 Stream size : 770 MiB (89%) Title : The.Brooklyn.Banker.2016.WEB-DL.x264-FGT Writing library : x264 core 148 r2694 3b70645 Encoding settings : cabac=1 / ref=5 / deblock=1:-2:-2 / analyse=0x3:0x113 / me=umh / subme=8 / psy=1 / psy_rd=0.90:0.00 / mixed_ref=1 / me_range=16 / chroma_me=1 / trellis=1 / 8x8dct=1 / cqm=0 / deadzone=21,11 / fast_pskip=1 / chroma_qp_offset=-2 / threads=12 / lookahead_threads=2 / sliced_threads=0 / nr=0 / decimate=1 / interlaced=0 / bluray_compat=0 / constrained_intra=0 / bframes=3 / b_pyramid=2 / b_adapt=2 / b_bias=0 / direct=3 / weightb=1 / open_gop=0 / weightp=2 / keyint=250 / keyint_min=25 / scenecut=40 / intra_refresh=0 / rc_lookahead=50 / rc=abr / mbtree=1 / bitrate=1100 / ratetol=1.0 / qcomp=0.60 / qpmin=0 / qpmax=69 / qpstep=4 / vbv_maxrate=31250 / vbv_bufsize=31250 / nal_hrd=none / filler=0 / ip_ratio=1.40 / aq=1:1.00 Audio ID : 2 Format : AAC Format/Info : Advanced Audio Codec Format profile : LC Codec ID : 40 Duration : 1h 37mn Duration_LastFrame : 43ms Bit rate mode : Constant Bit rate : 128 Kbps Channel(s) : 2 channels Channel positions : Front: L R Sampling rate : 48.0 KHz Frame rate : 46.875 fps (1024 spf) Compression mode : Lossy Stream size : 89.6 MiB (10%) Title : The.Brooklyn.Banker.2016.WEB-DL.x264-FGT Language : English Default : Yes Alternate group : 1 Torrent link http://linkshrink.net/7pO2Py
  14. Sikander (2014) [Telugu HDRip - x264 - AAC - 700MB] . Click On the image to view full size http://linkshrink.net/7jwCaq Please Seed Back After Download